Torrent Details

Deadpool 2 2018 720p HC HDRip x264 [MW]
Deadpool 2 2018 720p HC HDRip x264 [MW]
Size1.1 GB in 1 file
ReleasesAdded on 25.08.2018 at 0:03 into the Movies category by Unknown.
Status0 seeds & 0 peers.
Hash31321e85387b1e0f6e9a0cb0c87924a16d5ac54e
Rating
  • YourBT Visitors

Status This torrent has been verified.
*

Torrent Description







General

Format                                   : Matroska

Format version                           : Version 4 / Version 2

File size                                : 1.10 GiB

Duration                                 : 1 h 59 min

Overall bit rate                         : 1 322 kb/s



Video

ID                                       : 1

Format                                   : AVC

Format/Info                              : Advanced Video Codec

Format profile                           : [email protected]

Format settings                          : CABAC / 4 Ref Frames

Format settings, CABAC                   : Yes

Format settings, RefFrames               : 4 frames

Codec ID                                 : V_MPEG4/ISO/AVC

Duration                                 : 1 h 58 min

Bit rate                                 : 1 200 kb/s

Width                                    : 1 280 pixels

Height                                   : 564 pixels

Display aspect ratio                     : 2.25:1

Frame rate mode                          : Constant

Frame rate                               : 14.412 FPS

Color space                              : YUV

Chroma subsampling                       : 4:2:0

Bit depth                                : 8 bits

Scan type                                : Progressive

Bits/(Pixel*Frame)                       : 0.115

Stream size                              : 1 015 MiB (90%)

Writing library                          : x264 core 155 r2901 7d0ff22

Default                                  : Yes

Forced                                   : No



Audio

ID                                       : 2

Format                                   : AAC

Format/Info                              : Advanced Audio Codec

Format profile                           : LC

Codec ID                                 : A_AAC-2

Duration                                 : 1 h 59 min

Bit rate                                 : 128 kb/s

Channel(s)                               : 2 channels

Channel positions                        : Front: L R

Sampling rate                            : 48.0 kHz

Frame rate                               : 46.875 FPS (1024 SPF)

Compression mode                         : Lossy

Stream size                              : 109 MiB (10%)

Default                                  : Yes

Forced                                   : No





Click To Enlarge Image

















Similar Torrents

No Similar Torrents Found

If we find similar torrents, we normally show them right here. We couldn't find anything for "".

Torrent Trackers

Files inside this torrent

FILENAMESIZE
icon Deadpool 2 2018 720p HC HDRip x264 [MW].mkv1.1 GB