Torrent Details

[MovCr cc] - Koode (2018) Malayalam - Original - DVDRip - x264 - 700MB - Mp3 - ESub - MovC<font color=#ccc>r</font>
[MovCr cc] - Koode (2018) Malayalam - Original - DVDRip - x264 - 700MB - Mp3 - ESub - MovCr
Size723 MB in 1 file
ReleasesAdded on 17.10.2018 at 11:50 into the Movies category by Unknown.
Status0 seeds & 0 peers.
Hash1f431accc3014516355d3c687826e3e3fda0afd9
Rating
  • YourBT Visitors

Status This torrent has been verified.
*

Torrent Description

http://movcr.cc


Koode (2018) Malayalam - Original - DVDRip - x264 - 700MB - Mp3 - ESub - MovCr


Video
ID : 1
Format : AVC
Format/Info : Advanced Video Codec
Format profile : [email protected]
Format settings : CABAC / 4 Ref Frames
Format settings, CABAC : Yes
Format settings, RefFrames : 4 frames
Codec ID : V_MPEG4/ISO/AVC
Duration : 2 h 34 min
Bit rate : 575 kb/s
Width : 720 pixels
Height : 306 pixels
Display aspect ratio : 2.35:1
Frame rate mode : Constant
Frame rate : 23.976 (24000/1001) FPS
Color space : YUV
Chroma subsampling : 4:2:0
Bit depth : 8 bits
Scan type : Progressive
Bits/(Pixel*Frame) : 0.109
Stream size : 632 MiB (87%)
Title : www.MovCr.cc
Writing library : x264 core 155 r2901 7d0ff22
Encoding settings : cabac=1 / ref=2 / deblock=1:0:0 / analyse=0x3:0x113 / me=hex / subme=6 / psy=1 / psy_rd=1.00:0.00 / mixed_ref=1 / me_range=16 / chroma_me=1 / trellis=1 / 8x8dct=1 / cqm=0 / deadzone=21,11 / fast_pskip=1 / chroma_qp_offset=-2 / threads=10 / lookahead_threads=1 / sliced_threads=0 / nr=0 / decimate=1 / interlaced=0 / bluray_compat=0 / constrained_intra=0 / bframes=3 / b_pyramid=2 / b_adapt=1 / b_bias=0 / direct=1 / weightb=1 / open_gop=0 / weightp=1 / keyint=240 / keyint_min=24 / scenecut=40 / intra_refresh=0 / rc_lookahead=30 / rc=abr / mbtree=1 / bitrate=575 / ratetol=1.0 / qcomp=0.60 / qpmin=0 / qpmax=69 / qpstep=4 / ip_ratio=1.40 / aq=1:1.00
Default : Yes
Forced : No
Color range : Limited
Color primaries : BT.601 NTSC
Transfer characteristics : BT.709
Matrix coefficients : BT.601

Audio
ID : 2
Format : MPEG Audio
Format version : Version 1
Format profile : Layer 3
Format settings : Joint stereo / MS Stereo
Codec ID : A_MPEG/L3
Codec ID/Hint : MP3
Duration : 2 h 34 min
Bit rate mode : Constant
Bit rate : 80.0 kb/s
Channel(s) : 2 channels
Sampling rate : 48.0 kHz
Frame rate : 41.667 FPS (1152 SPF)
Compression mode : Lossy
Stream size : 88.4 MiB (12%)
Title : www.MovCr.cc
Language : Kannada
Default : Yes
Forced : No

Text
ID : 3
Format : UTF-8
Codec ID : S_TEXT/UTF8
Codec ID/Info : UTF-8 Plain Text
Duration : 2 h 30 min
Bit rate : 10 b/s
Count of elements : 375
Stream size : 12.1 KiB (0%)
Title : www.MovCr.cc
Default : Yes
Forced : No






Similar Torrents

No Similar Torrents Found

If we find similar torrents, we normally show them right here. We couldn't find anything for "".

Torrent Trackers

Files inside this torrent

FILENAMESIZE
icon [MovCr.cc] - Koode (2018) Malayalam - Original - DVDRip - x264 - 700MB - Mp3 - ESub - MovCr.mkv722.8 MB