Torrent Details

Bumblebee 2018 1080p HDRip x264 AAC2 0
Bumblebee 2018 1080p HDRip x264 AAC2 0
Size1.8 GB in 2 files
ReleasesAdded on 01/19/19 at 7:44am into the Movies category by Unknown.
Status46 seeds & 10 peers.
Hashaa6d5c5e4bf0bb7024601e80a436f56eabcae750
Rating
  • YourBT Visitors

Status This torrent has been verified.
*

Torrent Description

Quote:





******************************Thumbnail:**********************







******************************Screenshots:********************



Screenshot 1



Screenshot 2



Screenshot 3



Screenshot 4



Screenshot 5



Screenshot 6



Screenshot 7



Screenshot 8



Screenshot 9



Screenshot 0





******************************************************



Bumblebee.2018.RERIP.1080p.HDRip.x264.AAC2.0.LLG.mp4

Format                                   : MPEG-4

Format profile                           : Base Media

Codec ID                                 : isom (isom/iso2/avc1/mp41)

File size                                : 1.81 GiB

Duration                                 : 1 h 53 min

Overall bit rate mode                    : Variable

Overall bit rate                         : 2 279 kb/s

Writing application                      : Lavf57.83.100



Video

ID                                       : 1

Format                                   : AVC

Format/Info                              : Advanced Video Codec

Format profile                           : [email protected]

Format settings                          : CABAC / 1 Ref Frames

Format settings, CABAC                   : Yes

Format settings, RefFrames               : 1 frame

Codec ID                                 : avc1

Codec ID/Info                            : Advanced Video Coding

Duration                                 : 1 h 53 min

Bit rate mode                            : Variable

Bit rate                                 : 2 039 kb/s

Maximum bit rate                         : 6 000 kb/s

Width                                    : 1 920 pixels

Height                                   : 1 080 pixels

Display aspect ratio                     : 16:9

Frame rate mode                          : Constant

Frame rate                               : 29.970 (29970/1000) FPS

Original frame rate                      : 29.970 (30000/1001) FPS

Color space                              : YUV

Chroma subsampling                       : 4:2:0

Bit depth                                : 8 bits

Scan type                                : Progressive

Bits/(Pixel*Frame)                       : 0.033

Stream size                              : 1.62 GiB (89%)

Codec configuration box                  : avcC



Audio

ID                                       : 2

Format                                   : AAC LC

Codec ID                                 : mp4a-40-2

Duration                                 : 1 h 53 min

Bit rate mode                            : Variable

Bit rate                                 : 233 kb/s

Maximum bit rate                         : 256 kb/s

Channel(s)                               : 2 channels

Channel layout                           : L R

Sampling rate                            : 48.0 kHz

Frame rate                               : 46.875 FPS (1024 SPF)

Compression mode                         : Lossy

Stream size                              : 190 MiB (10%)

Language                                 : English

Default                                  : Yes

Alternate group                          : 1









********************************************************



Similar Torrents

No Similar Torrents Found

If we find similar torrents, we normally show them right here. We couldn't find anything for "".

Torrent Trackers

TRACKER URLSEEDSPEERS
Onlineudp://tracker.pirateparty.gr:6969/announce4610
Onlineudp://tracker.opentrackr.org:1337/announce438
Onlineudp://tracker.coppersurfer.tk:6969/announce438
Onlineudp://mgtracker.org:6969/announce349
Onlineudp://tracker.open-internet.nl:6969/announce244
Onlineudp://tracker.zer0day.to:1337/announce33

Files inside this torrent

FILENAMESIZE
icon SAMPLE.mp422.5 MB
icon Bumblebee.2018.1080p.HDRip.x264.AAC2.0.LLG.mp41.8 GB